&title=POP TEAM EPIC [DX]
&wholebpm=142
&artist=上坂すみれ「ポプテピピック」
&des=小鳥遊さん
&shortid=10728
&genre=POPSアニメ
&cabinet=DX
&version=maimai DX
&chartconverter=Neskol
&lv_2=3
&des_2=-
&lv_3=6
&des_3=-
&lv_4=9
&des_4=某S氏
&lv_5=12+
&des_5=小鳥遊さん
&des_6=
&inote_2=
(142){1},
{1},
{1},
{1},
{1},
{1}C1f,
{1}1,
{1}1,
{1}2,
{1}2,
{1}3,
{1}3,
{1}4,
{1}4x/5x,
{2}5,5,
{1}5,
{1}6h[1:1],
{1},
{2}4,4,
{1}4,
{1}3h[1:1],
{1},
{1}B2,
{1}B1,
{1}B8,
{1}B7,
{1}B6,
{1}B4/B5,
{1}C1hf[4:5],
{1},
{4}8b,8,8,,
{4}7,7,7,,
{4}6,6,6,,
{2}4/5,4x/5x,
{2}4,3x/4x,
{2}5,5x/6x,
{1}4h[1:1]/5h[1:1],
{2},4x/5x,
{4}4b,4,4,,
{4}3,3,3,,
{4}2,2,2,,
{2}1/8,1x/8x,
{4}7,7,7,,
{4}6,6,6,,
{2}5x/6x,4x/5x,
{1}3xh[2:1]/4xh[2:1],
{1}2-6[4:3],
{1},
{2}7,7,
{2}8,8,
{1}7-3[4:3],
{1},
{2}2,2,
{2}1,1,
{1}8-4[4:3],
{1},
{1},
{1},
E
&inote_3=
(142){1},
{1},
{4}6h[4:3],,,5,
{4}3h[4:3],,,4,
{4}5h[4:3],,,4,
{1}3h[8:5]/6h[8:5],
{2}B7,B5,
{1}B3,
{2}B2,B4,
{1}B6,
{2}B7,B5,
{2}B3,C1,
{2}B6,B7,
{1}C1f,
{4}6,6,5/6,,
{4}3,3,3/4,,
{4}6,6,5,4,
{4}3,3,2x/4x,,
{4}3,3,3/4,,
{4}6,6,5/6,,
{4}3,3,2,1,
{4}8,8,2b/7b,,
{2}6h[2:1],5h[2:1],
{2}4h[2:1],3h[2:1],
{1}4pp8[1:1],
{2},1b,
{4}1,1,2,2,
{4}3,3,4,4,
{4}5x,6x,7x,8x,
{4}1x/8x,2b/7b,,,
{4}2,1/2,7,7/8,
{4}6,5/6,4x/7x,,
{4}6h[4:1],5,4h[4:1],5,
{4}3x/6x,,1x,1x,
{4}7,7/8,2,1/2,
{4}3,3/4,2x/5x,,
{4}3h[4:1],4,5h[4:1],4,
{4}3b/6b,,8x,8x,
{4}2,1/2,3,4/5,
{4}6,7/8,1x/6x,,
{4}6h[4:1],5,3h[4:1],4,
{4}3x/6x,,1x,1x,
{4}7,7/8,6,4/5,
{4}3,1/2,3x/8x,,
{4}3h[4:1],4,6h[4:1],5,
{4}4x/5x,3x/6x,2b/7b,,
{1}1>4[8:3],
{1}5<8[8:3],
{1}1>4[8:3],
{4}5,5,4x/6x,,
{1}7<4[8:3],
{1}3>8[8:3],
{1}7<4[8:3],
{2}B3,B4/B5,
{1}C1hf[1:1],
{1},
{1},
{1},
E
&inote_4=
(142){1},
{1},
{4}7/8,1/6,3h[4:1],4,
{8}6,5,6,,3,4,3,,
{4}1/2,3/8,6h[4:1],5,
{1}C1f/B3/B4/B7/B8/E8,
{4}E3/E4/E5,C1xh[8:3],,,
{4}E5/E6/E7,C1xh[8:3],,,
{4}E1/E2/E3,C1xh[8:3],,,
{4}E1/E7/E8,C1xh[8:3],,,
{4}E3/E4/E7/E8,C1xh[8:3],,,
{4}E2/E3/E6/E7,C1xh[8:3],,,
{4}B2/B3/E3/B6/E7/B7,C1xh[8:3],,,
{4}E1/B1/B4/E5/B5/B8,C1hf[8:3],,,
{8}1,,2/8,,3h[4:1],4,4,,
{8}8,,1/7,,6h[4:1],5,5,,
{4}5>2[8:1],6,5<8[8:1],3,
{4}4>1[8:1],6,4<7[8:1],3,
{8}8,,1/7,,6h[4:1],5,5,,
{8}1,,2/8,,3h[4:1],4,4,,
{4}4<7[8:1],3,4>1[8:1],6,
{4}5<8[8:1],3,5>2[8:1],6,
{2}5h[2:1],1h[2:1],
{2}8h[2:1],6h[1:1],
{4}4h[2:1],,,5-1[8:1],
{8},,,,4,5,3/6,,
{8}5/6,,4/7,,7h[4:1],8x,8x,,
{8}3/4,,2/5,,2h[4:1],1x,1x,,
{4}6,5/7,4V26[16:5]/8V26[16:5],,
{4},C1f/B4/B8,,1b/8b,
{2}2<8[8:1]/6>4[8:1],2<8[8:1]/6>4[8:1],
{8}2<7[8:1]/6>3[8:1],,,,1h[4:1]/5,,8,8,
{8}7h[4:1],,6,4/5,,2/3,,1-5[8:1]/8,
{8},,,8h[4:1],,1,1,,
{8}2h[4:1],,3,3,,2/4,,5/7,
{8},6/8,,1/3,,4/8,,1/5,
{8}1h[4:1],,7,7,6h[4:1],,3,3,
{8}4h[4:1],,5-8[8:1],5,,,2b/7b,,
{2}3<5[8:1]/7>1[8:1],3<5[8:1]/7>1[8:1],
{8}3<6[8:1]/7>2[8:1],,,,4/8h[4:1],,1,1,
{8}2h[4:1],,3,4/5,,6/7,,1/8-4[8:1],
{8},,,1h[4:1],,8,8,,
{1}1x>8[8:3]/8x,
{8}1x/8x<1[8:3],,,,,,,1,
{8}2h[4:1]/8h[4:1],,,8,1h[4:1]/7h[4:1],,,1/8,
{8}2h[4:1]/7h[4:1],,,3/6,,4/5,3b/6b,,
{4}C1/E2,E3,E4,E5,
{4}C1/E6,E7,E8,E1,
{4}C1/B2,B3,B4,B5,
{4}C1/B6,B7,B8,B1,
{4}C1/E8,E7,E6,E5,
{4}C1/E4,E3,E2,E1,
{4}C1/B7,B6,B5,B4,
{8}3h[4:1]/5h[4:1],,,4h[4:1]/6h[4:1],,,4/5,,
{1}C1xh[1:1]/B3/B4/B7/B8,
{1},
{1},
{1},
E
&inote_5=
(142){1},
{1},
{16}1x/8x,,,,4/5,,3,4,,6,5,,4/7,,6,5,
{16}6,,3,4,2,,2,,6,5,7,,7,,4,5,
{16}4,,8,1,2h[8:1]/7h[8:1],,,,E2,B8,B4,E6,B1,E8,E4,B5,
{1}C1f,
{24}3xh[8:5]/4x,,,,,,4,,,,,,,,,E4,B3,B2,E2,,,,,,
{24}5x/6xh[8:5],,,,,,5,,,,,,,,,E6,B6,B7,E8,,,,,,
{32}3xh[8:5]/4x,,,,,,,,4,,,,,,,,,,,,B3,B2,B1,B8,B7,,,,,,,,
{32}5x/6xh[8:5],,,,,,,,5,,,,,,,,,,,,B6,B7,B8,B1,B2,,,,,,,,
{32}1x/2xh[8:5],,,,,,,,1,,,,,,,,,,,,E3,E4,E5,E6,E7,,,,,,,,
{32}7xh[8:5]/8x,,,,,,,,8,,,,,,,,,,,,E7,E6,E5,E4,E3,,,,,,,,
{48}1x/3xh[8:5],,,,,,,,,,,,1,,,,,,,,,,,,,,,,,,E1,E2,E3,E4,E5,E6,E7,,,,,,,,,,,,
{48}6xh[8:5]/8x,,,,,,,,,,,,8,,,,,,,,,,,,,,,,,,E1,E8,E7,E6,E5,E4,E3,,,,,,,,,,,,
{4}4x/5x,C1,6-4[8:1],,
{24}E7,B7,C1,,,,,,,E7,B7,C1,,,,,,,E7,B7,C1,,,,
{4}1>3[8:1],1p5[8:1],1-4[8:1],,
{4}E1/B7/B8,B3/B4/E5,B1/B2/E3,B5/B6/E7,
{2}1pp3[8:1]/8qq6[8:1],6-2[8:1]/7h[4:1],
{4}1-7[8:1]*<7[8:1],1-3[8:1]*>3[8:1],1-6[8:1]*<6[8:1],,
{2}2-7[8:1]/3-6[8:1],2-7[8:1]/3-6[8:1],
{4}E1/B1/B2,B5/B6/E7,B1/B2/E3,E5/B5/B6,
{24}3xh[4:1]/4h[8:3],,,,,,,,,E3,B2,B1,E1/E5,,,,,,,,,,,,
{24}5h[8:3]/6xh[4:1],,,,,,,,,E7,B7,B8,E1/E5,,,,,,,,,,,,
{24}1xh[4:1]/8h[8:3],,,,,,,,,E2,B2,B3,E1/E4,,,,,,,,,,,,
{24}1h[8:3]/8xh[4:1],,,,,,,,,E8,B7,B6,E1/E6,,,,,,4/5,,,,,,
{8}1h[8:1]/6x,,3x/7h[8:1],,4h[8:1]/6x,8b,8b,,
{8}1h[8:1]/6x,,5x/7h[8:1],,2x/4h[8:1],1b,1b,,
{8}C1hf[8:9],,,,,,2x,2x-6[8:1],
{4},,,3b/7xh[4:5],
{32}E2,E3,E4,E5,E6,E7,E8,E1,E2,E3,E4,E5,E6,E7,E8,E1,E2,E3,E4,E5,E6,E7,E8,E1,E2,E3,E4,E5,E6,E7,E8,E1,
{8}C1f/E2,,,7-4[8:1]/8,,1,2,3,
{8}4>7[8:3],,7,7<3[4:1],,3>7[4:1],,7w3[8:1],
{8},,,1h[8:1]/5h[8:1],,1/5,2/6,3/7,
{8}4/8<1[8:3],,1,1q5[4:1],,5-8[4:1],,8-3[4:1],
{8},3-5[4:1],,5s1[8:3],,1,,2,
{8}2,3,4/5,7,7,6,4/5,,
{8}C1f/B2/B3/B6/B7,,,1h[4:1]/8h[4:1],,,2xh[4:5]/6b,,
{32}E8,E7,E6,E5,E4,E3,E2,E1,E8,E7,E6,E5,E4,E3,E2,E1,E8,E7,E6,E5,E4,E3,E2,E1,E8,E7,E6,E5,E4,E3,E2,E1,
{8}C1f/E8,,,1/2-5[8:1],,8,7,6,
{8}4/5<2[8:3],,2,2>6[4:1],,6<2[4:1],,2w6[8:1],
{8},,,4h[8:1]/8h[8:1],,4/8,3/7,2/6,
{8}1>8[8:3]/5,,8,8q4[4:1],,4>1[4:1],,1p5[4:1],
{8},5<8[4:1],,8z4[8:3],,,,8,
{8}7,6,4/5,1,2,3,4/5,3/6,
{384}7xqq4[8:3]*qq4[8:3],2xqq4[384:143],,,,,,,,,,,,,,,,,,,,,,,,,,,,,,,,,,,,,,,,,,,,,,,,,,,,,,,,,,,,,,,,,,,,,,,,,,,,,,,,,,,,,,,,,,,,,,,,,,,,,,,,,,,,,,,,,,,,,,,,,,,,,,,,,,,,,,,,,,,,,,,,,,,,,,,,,,,,,,,,,,,,,,,,,,,,,,,,,,,,,,,,,,,,,,,,,,,,,,,,,,,,,,,,,,,,,,,,,,,,,,,,,,,,,,,,,,,,,,,,,,,,,,,,,,,,,,,,,,,,,,,,,,,,,,,,,,,,,,,,,,,,,,,2b/7b,,,,,,,,,,,,,,,,,,,,,,,,,,,,,,,,,,,,,,,,,,,,,,,,,,,,,,,,,,,,,,,,,,,,,,,,,,,,,,,,,,,,,,,,,,,,,,,,
{8}3x/6x<1[8:1],,B1/B2,3<6[8:1],,B6/B7,8>3[8:1],,
{8}B3/B4,5<8[8:1],,B1/B8,2>5[8:1],,B5/B6,7>2[8:1],
{8},B2/B3,4<7[8:1],,B7/B8,1>4[8:1],,B4/B5,
{8}6b,,2/4,3,5/7,6,1/8,,
{16}2b/7b<4[8:1],,,B3,B4,,2<7[8:1],,,B7,B6,,5>2[8:1],,,B1,
{16}B2,,8<5[8:1],,,B4,B5,,3>8[8:1],,,B8,B7,,6>3[8:1],,
{16},B2,B3,,1<6[8:1],,,B6,B5,,4,,4/5,,,,
{8}C1xh[8:1]/E6,B7/E8,,C1xh[8:1]/E4,B2/E2,,1b/8b,,
{1}C1hf[1:1]/B2/E2/E3/B3/B6/B7/E7/E8,
{1},
{1},
{1},
E
